<?xml version="1.0" standalone="no"?>
<!DOCTYPE svg PUBLIC "-//W3C//DTD SVG 1.1//EN" "http://www.w3.org/Graphics/SVG/1.1/DTD/svg11.dtd" >
<svg xmlns="http://www.w3.org/2000/svg">
<metadata>Generated by IcoMoon</metadata>
<defs>
<font id="icomoon" horiz-adv-x="1024">
<font-face units-per-em="1024" ascent="960" descent="-64" />
<missing-glyph horiz-adv-x="1024" />
<glyph unicode="&#x20;" d="" />
<glyph unicode="&#xe900;" glyph-name="add" d="M968 519h-385v385q-4 24-23 40t-44 16h-8q-25 0-44-15.5t-23-39.5v-386h-385q-24-4-40-23t-16-44v-8q0-25 16-44t39-23h386v-385q4-24 23-40t44-16h8q25 0 44 15.5t23 39.5v386h385q24 4 40 23t16 44v8q0 25-15.5 44t-39.5 23h-1z" />
<glyph unicode="&#xe901;" glyph-name="address" horiz-adv-x="1027" d="M410 41v-104l-25 20q-52 43-99 89t-90 95l-1 2q-49 55-85 108-37 53-61 102.5t-37 95.5q-12 47-12 90v11q0 85 32 160 32 74 88 130t130 88q75 32 160 32t160-32q74-32 130-88t88-130q32-75 32-160v0-11q0-8-0.5-15t-0.5-15l-81 74q-6 62-34 117-28 54-72 94t-101 63-121 23q-68 0-128-26-61-26-105.5-70.5t-70.5-105.5q-26-60-26-128v-11q0-73 40-150t94.5-145.5 109.5-122.5q56-54 86-80v0zM656 98h120v120h-120v-120zM410 720v0 0q70 0 120-50t50-120-50-120-120-50-120 50-50 120v0 0 0q0 70 50 120t120 50v0 0zM410 640q-37 0-63.5-26.5t-26.5-63.5 26.5-63.5 63.5-26.5 63.5 26.5 26.5 63.5v0 0 0q0 37-26.5 63.5t-63.5 26.5v0 0 0 0zM973 152l-23 21v-129q0-44-31.5-76t-76.5-32h-254q-45 0-76.5 32t-31.5 76v129l-23-21-54 59 312 285 312-285zM870 246l-155 141-155-141v-202q0-11 8.5-19.5t19.5-8.5h254q12 0 20 8.5t8 19.5v0 202z" />
<glyph unicode="&#xe902;" glyph-name="arrow-left" d="M749-54l51 52q5 4 8 10t3 13-3 13-8 11l-403 403 403 403q5 5 8 11t3 13-3 13-8 10l-51 52q-4 4-10.5 7t-13.5 3-13-3-10-7l-478-478q-5-5-8-11t-3-13 3-13 8-11l478-478q4-4 10-7t13-3 13.5 3 10.5 7v0 0z" />
<glyph unicode="&#xe903;" glyph-name="arrow-right" d="M275-54l-51 52q-5 4-8 10t-3 13 3 13 8 11l403 403-403 403q-5 5-8 11t-3 13 3 13 8 10l51 52q4 4 10.5 7t13.5 3 13-3 10-7l478-478q5-5 8-11t3-13-3-13-8-11l-478-478q-4-4-10-7t-13-3-13.5 3-10.5 7v0 0z" />
<glyph unicode="&#xe904;" glyph-name="arrow-up" d="M1014 211l-52-51q-4-5-10-8t-13-3-13 3-11 8l-403 403-403-403q-5-5-11-8t-13-3-13 3-10 8l-52 51q-4 4-7 10.5t-3 13.5 3 13 7 10l478 478q5 5 11 8t13 3 13-3 11-8l478-478q4-4 7-10t3-13-3-13.5-7-10.5v0 0z" />
<glyph unicode="&#xe905;" glyph-name="arrow-down" d="M1014 685l-52 51q-4 5-10 8t-13 3-13-3-11-8l-403-403-403 403q-5 5-11 8t-13 3-13-3-10-8l-52-51q-4-4-7-10.5t-3-13.5 3-13 7-10l478-478q5-5 11-8t13-3 13 3 11 8l478 478q4 4 7 10t3 13-3 13.5-7 10.5v0 0z" />
<glyph unicode="&#xe906;" glyph-name="product-map" d="M853 960q-70 0-120-50t-50-121h-640q-18 0-30.5-12.5t-12.5-29.5v0-768q0-18 12.5-30.5t30.5-12.5v0h810q71 0 121 50t50 121v0 682q0 71-50 121t-121 50v0 0zM853 21h-768v683h598v-597q0-18 12.5-30.5t29.5-12.5q18 0 30.5 12.5t12.5 30.5v0q0 35 25 60t60 25q36 0 61-25t25-60q0-36-25-61t-61-25v0 0zM939 256q-19 11-40.5 17t-45.5 6q-23 0-45-6t-41-17h1v533q0 36 25 61t60 25q36 0 61-25t25-61v-533zM171 576v-299q0-70 50-120t120-50h299v85h-85v213h-86v-213h-128q-35 0-60 25t-25 60v43h85v85h-85v128h384v86h-427q-17 0-29.5-12.5t-12.5-30.5v0z" />
<glyph unicode="&#xe907;" glyph-name="cancel" d="M704 712l-192-193-192 193q-15 10-32.5 8t-29.5-14l-4-4q-12-12-14-29.5t8-31.5v0l193-193-193-192q-9-15-7.5-32.5t13.5-29.5l4-4q12-12 29.5-14t31.5 8h1l192 193 192-193q15-9 32.5-7.5t29.5 13.5l4 4q12 12 14 29.5t-8 31.5v1l-193 192 193 193q9 14 7.5 31.5t-13.5 29.5l-4 4q-12 12-29.5 14t-31.5-8h-1z" />
<glyph unicode="&#xe908;" glyph-name="card" horiz-adv-x="1119" d="M886 215q-58 0-99-41t-41-98q0-58 41-99t99-41 98.5 41 40.5 99v0q0 57-40.5 98t-98.5 41v0 0zM886 20q-23 0-39.5 16t-16.5 40q0 23 16.5 39t39.5 16 39.5-16 16.5-39v0q0-24-16.5-40t-39.5-16v0zM1110 754q-6 8-14.5 12t-18.5 4h-819l-37 158q-4 14-15 23t-26 9h-138q-17 0-29.5-12t-12.5-30q0-17 12.5-29.5t29.5-12.5v0h105l136-569q3-14 14.5-23t26.5-9h651q15 0 26 9t15 23v0l102 411q0 3 0.5 5.5t0.5 4.5q0 8-2.5 14.5t-6.5 11.5v0 0zM942 359h-585l-79 328h746zM379 215q-57 0-98-41t-41-98q0-58 41-99t98-41q58 0 99 41t41 99v0q0 57-41 98t-99 41v0 0zM379 20q-23 0-39 16t-16 40q0 23 16 39t39 16q24 0 40-16t16-39v0q0-24-16-40t-40-16v0 0z" />
<glyph unicode="&#xe909;" glyph-name="warranty" horiz-adv-x="960" d="M780 240v600q0 50-35 85t-85 35h-540q-50 0-85-35t-35-85v-120h120v-664q0-50 35-85t85-35h600q50 0 85 35t35 85v184h-180zM60 840q0 25 17.5 42.5t42.5 17.5h436q-7-13-11.5-28t-4.5-32v0 0 0-60h-480v60zM180 56v664h420v120q1 24 18 41.5t42 17.5 42.5-17.5 17.5-41.5v0-784q0-17 4.5-32t11.5-29v1h-496q-25 0-42.5 17.5t-17.5 42.5v0 0zM900 56q0-24-17.5-41.5t-42.5-17.5-42 17.5-18 41.5v0 124h120v-124zM330 672l42-42-42-42-42 42zM450 673l42-43-42-42-42 42zM570 673l42-43-42-42-42 42zM240 540h420v-60h-420v60zM240 420h180v-60h-180v60zM480 420h180v-60h-180v60zM480 300h180v-60h-180v60zM480 180h180v-60h-180v60zM240 180h180v-60h-180v60zM240 300h180v-60h-180v60z" />
<glyph unicode="&#xe90a;" glyph-name="chat" d="M737 778q13 0 21.5-9t8.5-21q0-9-4-16t-12-10v-1q-19-11-31.5-30.5t-12.5-43.5v-3h60v2q0 7 3.5 13t8.5 9v0q22 12 35 33t13 47q0 37-26 63.5t-64 26.5q-37 0-63.5-26.5t-26.5-63.5v0 0 0h60q0 12 9 21t21 9v0 0 0 0zM707 598h60v-60h-60v60zM242 960v-362h-242v-540h122v-122l160 122h500v326l120-99v133h122v542h-782zM262 118l-80-61v61h-122v420h182v-60h-60v-60h540v-300h-460zM964 478h-122v-65l-79 65h-461v422h662v-422zM287 238h420v-60h-420v60zM287 358h420v-60h-420v60z" />
<glyph unicode="&#xe90b;" glyph-name="communication" d="M914 230q10 14 15 31t5 35q0 50-35 85t-85 35q-8 0-16.5-1t-16.5-4l1 1v69q52 11 86 52t34 95v122q0 62-44 106t-106 44h-120q-21 27-52 43.5t-68 16.5h-240q-62 0-106-44t-44-106v-182q0-54 34-95t85-52h1v-69q-7 2-15.5 3t-16.5 1q-50 0-85-35t-35-85q0-18 5-35t15-31v0q-48-13-79-53t-31-91v-120q0-12 9-21t21-9v0h360q12 0 21 9t9 21v0 120q0 51-31 91t-78 53h-1q10 14 15 31t5 35q0 22-8 42.5t-21 35.5v0l103 104h216l103-104q-13-15-21-35.5t-8-42.5q0-18 5-35t15-31v0q-48-13-79-53t-31-91v-120q0-12 9-21t21-9v0h360q12 0 21 9t9 21v0 120q0 51-31 91t-78 53h-1zM210 356q25 0 42.5-17.5t17.5-42.5-17.5-42.5-42.5-17.5-42.5 17.5-17.5 42.5v0q0 25 17.5 42.5t42.5 17.5v0 0zM360 86v-90h-300v90q0 37 26.5 63.5t63.5 26.5h120q37 0 63.5-26.5t26.5-63.5v0 0zM602 628q0-37-26.5-63.5t-63.5-26.5h-120q-6 0-11.5-2.5t-9.5-6.5v0l-69-69v48q0 12-9 21t-21 9v0q-37 0-63.5 26.5t-26.5 63.5v182q0 37 26.5 63.5t63.5 26.5h240q37 0 63.5-26.5t26.5-63.5v0-182zM814 356q25 0 42.5-17.5t17.5-42.5-17.5-42.5-42.5-17.5-42.5 17.5-17.5 42.5v0 0 0q0 25 17.5 42.5t42.5 17.5v0 0zM722 508v-48l-69 69q-4 4-9.5 6.5t-11.5 2.5v0 0 0q14 19 22 41.5t8 48.5v0 0 0 182q0 8-1 15.5t-2 15.5v-1h93q37 0 63.5-26.5t26.5-63.5v-122q0-37-26.5-63.5t-63.5-26.5v0 0 0q-12 0-21-9t-9-21v0 0 0 0zM964-4h-300v90q0 37 26.5 63.5t63.5 26.5h120q37 0 63.5-26.5t26.5-63.5v0-90zM503 831q-4 4-9.5 6.5t-11.5 2.5-11.5-2.5-9.5-6.5l-99-99-39 39q-4 4-9.5 6.5t-11.5 2.5q-12 0-21-9t-9-21q0-6 2.5-11.5t6.5-9.5l60-60q4-4 9.5-6.5t11.5-2.5 11.5 2.5 9.5 6.5l120 120q4 4 6.5 9.5t2.5 11.5-2.5 11.5-6.5 9.5v0 0z" />
<glyph unicode="&#xe90c;" glyph-name="download" d="M713 502l-144-144v602h-114v-602l-144 144-81-80 242-242q8-8 18-12t22-4 22.5 4 17.5 12l242 242zM910 277v-227h-796v227h-114v-227q0-47 33.5-80.5t80.5-33.5h796q47 0 80.5 33.5t33.5 80.5v227h-114z" />
<glyph unicode="&#xe90d;" glyph-name="facebook" horiz-adv-x="544" d="M160-64v480h-160v192h160v102q0 59 24 105t62.5 78.5 87.5 49.5 99 17h12q26 0 52-2t51-6l-4 1v-153h-105q-55 0-71-24.5t-16-64.5v-103h176l-32-192h-144v-480h-192z" />
<glyph unicode="&#xe90e;" glyph-name="filter-results" horiz-adv-x="1536" d="M597-64h342v171h-342v-171zM0 960v-171h1536v171h-1536zM256 363h1024v170h-1024v-170z" />
<glyph unicode="&#xe90f;" glyph-name="history-clock" horiz-adv-x="1078" d="M566 960h-2q-71 0-136-19-65-18-121.5-51.5t-102.5-81.5q-46-47-79-104l-1-3-124 124v-350h350l-151 151q26 51 64 92 37 42 84.5 71.5t101.5 46.5q55 16 115 16 84 0 157-32 74-31 129-86t88-129q32-73 32-157v0q0-84-32-157-32-74-87-129t-129-86q-73-32-157-32-66 0-125 20-60 19-110 54.5t-87 84.5q-38 49-59 107l-1 3h-113q23-82 70-152 47-69 112-119.5t145-78.5q80-29 168-29 106 0 200 41 93 40 162.5 109.5t110.5 163.5q40 93 40 199t-40 200q-41 93-110.5 162.5t-162.5 109.5q-93 41-199 41v0 0zM485 691v-275l253-151 43 70-215 129v227h-81z" />
<glyph unicode="&#xe910;" glyph-name="specifications" d="M512 960q-106 0-199-40-94-40-163.5-109.5t-109.5-163.5q-40-93-40-199t40-199q40-94 109.5-163.5t163.5-109.5q93-40 199-40t199 40q94 40 163.5 109.5t109.5 163.5q40 93 40 199v0q0 106-40 199-41 94-110 163t-163 110q-93 40-199 40v0zM512 3q-92 0-173 35t-141.5 95.5-95.5 141.5-35 173 35 173 95.5 141.5 141.5 95.5 173 35 173-35 141.5-95.5 95.5-141.5 35-173v0q0-92-35-173t-95.5-141.5-141.5-95.5-173-35v0 0zM458 641q2-3 3.5-6t3.5-6l-1 1q2-2 4-4.5t3-4.5q3-3 5.5-5t4.5-4v0q3-2 6-3.5t6-2.5v0q3-2 6.5-3t6.5-1v0q3-1 6-1h15.5t5.5 1v0q3 0 5.5 1t5.5 3v0h1q3 1 6 3l6 4q2 2 4.5 4t4.5 4v0l1 1q2 2 3.5 4t3.5 5v0q1 2 2.5 4.5t2.5 5.5v0 1l1 1 2 6t2 7v0q0 3 0.5 6.5t0.5 6.5-0.5 6.5-0.5 7.5v-1q-1 4-2 7.5t-2 6.5v-1q-2 5-5.5 9.5t-6.5 8.5l-2 2q-3 2-5 4t-5 4v0q-3 2-5.5 3.5t-5.5 2.5-6 2.5-6 1.5v0q-3 1-6 1h-15.5t-5.5-1v0q-3 0-6-1.5t-6-2.5v0h-1q-3-1-5.5-2.5t-5.5-3.5v0q-2-2-4.5-4t-5.5-4v0l-4-4t-4-5v0q-1-2-2.5-4.5t-2.5-5.5l-1-1q-1-2-2-5t-2-7v0q0-2-0.5-5t-0.5-6v-4q0-3 0.5-6t0.5-5v0q1-5 2-9l2-8v1zM598 273h-23v246q0 11-7.5 18.5t-18.5 7.5v0 0h-106q-11 0-18.5-7.5t-7.5-18.5v0 0 0-54q0-11 7.5-18.5t18.5-7.5v0 0h21v-167h-21q-11 0-18.5-7.5t-7.5-18.5v0 0 0-54q0-11 7.5-18.5t18.5-7.5v0 0h155q11 0 18.5 7.5t7.5 18.5v0 0 0 54q0 11-7.5 19t-18.5 8v0 0z" />
<glyph unicode="&#xe911;" glyph-name="linkedin" horiz-adv-x="1072" d="M1072 332v-396h-230v370q0 69-27 112.5t-89 43.5q-41 0-73-23.5t-45-59.5v-1q-4-11-6-23.5t-2-25.5v-393h-230l1 99q0 99 0.5 222.5t0.5 234.5q-1 111-2 135h230v-98q0-1-0.5-1.5l-0.5-0.5h1v2q30 52 82.5 83t115.5 31h9q57 0 105-19 49-18 84-56.5t55-97.5q21-58 21-138v0zM130 960q-59 0-94.5-34.5t-35.5-84.5v-1q0-49 35-84t84-35h9q61 0 95.5 35t34.5 85v0 0q0 49-34.5 84t-84.5 35h-9zM14-64h229v691h-229v-691z" />
<glyph unicode="&#xe912;" glyph-name="lock" horiz-adv-x="816" d="M696 584h-72v164q-1 44-18 83-18 38-47 67t-68 45q-39 17-83 17t-83-17q-39-16-68-45t-47-67q-17-38-18-82v-165h-72q-50 0-85-35t-35-85v-408q0-50 35-85t85-35h576q50 0 85 35t35 85v408q0 50-35 85t-85 35v0 0zM272 748q2 55 41.5 93.5t94.5 38.5 94.5-38.5 41.5-92.5v-165h-272v164zM736 56q0-17-11.5-28.5t-28.5-11.5h-576q-17 0-28.5 11.5t-11.5 28.5v408q0 17 11.5 28.5t28.5 11.5h576q17 0 28.5-11.5t11.5-28.5v0-408zM408 388q-31 0-52.5-21.5t-21.5-52.5q0-20 9-36t25-26v0-88q0-17 11.5-28.5t28.5-11.5 28.5 11.5 11.5 28.5v88q15 10 24.5 26t9.5 36q0 31-21.5 52.5t-52.5 21.5v0 0z" />
<glyph unicode="&#xe913;" glyph-name="logout" d="M910 960h-796q-47 0-80.5-33.5t-33.5-80.5v0 0 0-227h114v227h796v-796h-796v227h-114v-227q0-47 33.5-80.5t80.5-33.5v0 0h796q47 0 80.5 33.5t33.5 80.5v0 0 0 796q0 47-33.5 80.5t-80.5 33.5v0 0 0 0zM403 244l81-80 284 284-284 284-81-80 147-147h-550v-114h550z" />
<glyph unicode="&#xe914;" glyph-name="mail" horiz-adv-x="1342" d="M138 863q-17 0-29-12t-12-29v-748q0-17 12-29t29-12h1066q17 0 29 12t12 29v748q0 17-12 29t-29 12h-1066zM138 960h1066q57 0 97.5-40.5t40.5-97.5v0-748q0-57-40.5-97.5t-97.5-40.5v0h-1066q-57 0-97.5 40.5t-40.5 97.5v0 748q0 57 40.5 97.5t97.5 40.5v0 0zM669 245v0 0q-10 0-18.5 3.5t-15.5 9.5v0l-475 459q-7 7-10.5 16t-3.5 19q0 20 14 34t34 14q10 0 18.5-3.5t15.5-9.5v0l440-426 424 425q6 7 15 11t19 4q20 0 34.5-14t14.5-35q0-10-4-18.5t-11-15.5v0l-457-459q-6-6-15-10t-19-4v0 0zM194 122q-20 0-34 14.5t-14 34.5q0 9 3.5 18t9.5 16v0l289 289q7 7 15.5 10.5t18.5 3.5q20 0 34-14.5t14-34.5q0-9-3.5-17.5t-9.5-15.5v0l-289-290q-7-6-15.5-10t-18.5-4v0 0 0 0zM1126 122v0 0q-10 0-18.5 3.5t-15.5 10.5v0l-295 285q-7 6-10.5 15t-3.5 19q0 20 14 34.5t34 14.5q10 0 18.5-4t15.5-10h-1l296-285q7-7 11-15.5t4-19.5q0-20-14.5-34t-34.5-14v0 0 0 0z" />
<glyph unicode="&#xe915;" glyph-name="Polygon" horiz-adv-x="1195" d="M597-64l-597 1024h1195z" />
<glyph unicode="&#xe916;" glyph-name="product-finder" horiz-adv-x="1116" d="M258 403q0 59 18 114t50 100.5 76 80.5 97 55l2 1q-2 16-9.5 29.5t-19.5 22.5v0l-172 137q-10 8-22.5 12.5t-26.5 4.5q-15 0-27.5-4.5t-22.5-13.5v1l-171-137q-14-11-22-27t-8-35v0 0 0-635q0-32 23-55t55-23h345q18 0 33.5 7.5t26.5 20.5v0q-50 22-91 57-42 35-71.5 79.5t-45.5 97.5q-17 52-17 110v0 0zM183 770q0 29 20 48.5t48 19.5 47.5-19.5 19.5-48.5q0-28-19.5-47.5t-47.5-19.5v0 0 0q-28 0-48 19.5t-20 47.5v0 0zM1094 65l-177 176q21 35 32 76t11 85q0 68-25 127-26 59-70 103.5t-104 69.5q-59 26-126 26-68 0-127-26-59-25-103.5-69.5t-69.5-103.5q-26-59-26-127 0-67 26-126 25-60 69.5-104t103.5-70q59-25 127-25 50 0 96 14.5t85 40.5l-2-1 173-173q10-9 23-14t27-5q32 0 54 22t22 54q0 14-5 27t-14 23v0 0zM813 224q-34-35-80-54.5t-99-19.5q-52 0-98 20-46 19-80.5 53.5t-54.5 80.5q-19 46-19 99 0 52 19 98 20 46 54.5 80.5t80.5 54.5q46 19 98 19 53 0 99-19.5t80-54.5v0q35-34 55-80t20-98q0-53-20-99t-55-80v0 0zM491 546q-27-28-43-64.5t-16-78.5 16-79 43.5-64.5 63.5-43.5q37-16 79-16v0 0 0h9v405h-9q-42 0-79-16t-64-43v0 0z" />
<glyph unicode="&#xe917;" glyph-name="profile" horiz-adv-x="1075" d="M536 385q59 0 112 23 52 23 91 62t61 91q23 52 23 112 0 59-23 112-22 52-61 91t-92 61q-52 23-112 23-59 0-111-23-53-22-92-61t-61-91q-23-52-23-112v0q0-59 23-112 22-52 61-91t92-62q52-23 112-23v0 0zM536 885q44 0 82-17 39-16 67.5-45t45.5-67q17-39 17-83t-17-82q-17-39-45.5-67.5t-67.5-45.5q-38-17-82-17t-83 17q-38 17-67 45.5t-45 67.5q-17 38-17 82v0q0 44 17 82 16 39 45 67.5t67 45.5q39 17 83 17v0 0zM38-64h1000q15 0 26 11t11 27v0 0 0q0 75-28 140-29 66-78 115t-114 78q-66 28-141 28h-353q-75 0-140-28-66-29-115-78t-78-115q-28-65-28-140v0 0 0q0-16 11-27t27-11v0 0 0 0zM361 259h353q54 0 102-19t86-52 62-78q25-45 32-97l1-1h-918q7 52 32 98 25 45 62.5 78t85.5 52 102 19v0 0z" />
<glyph unicode="&#xe918;" glyph-name="remove" d="M968 519h-912q-25-6-40.5-25.5t-15.5-45.5 15.5-45.5 39.5-25.5h913q25 6 40.5 25.5t15.5 45.5-15.5 45.5-39.5 25.5h-1z" />
<glyph unicode="&#xe919;" glyph-name="return" horiz-adv-x="1023" d="M679 780v-80h-333v80h333zM807 287h-127l80 79-56 57-179-178 179-178 56 56-83 84h130q56 0 96-40t40-97v0q-1-24-10-45.5t-23-39.5v1l63-50q23 28 36.5 63t13.5 75q0 44-17 82-16 39-45 68t-68 46q-39 16-83 16h-3v1zM903 960h-783q-50 0-85-35t-35-85v-783q0-50 35-85t85-35h643l68 80h-711q-17 0-28.5 11.5t-11.5 28.5v783q0 17 11.5 28.5t28.5 11.5h783q17 0 28.5-11.5t11.5-28.5v-507q23-12 43-27.5t37-33.5v0 568q0 50-35 85t-85 35v0 0z" />
<glyph unicode="&#xe91a;" glyph-name="search-2" d="M400 240h136v-80h-136v80zM250 250q-21 0-35.5-14.5t-14.5-35.5q0-20 14.5-35t35.5-15 35.5 15 14.5 35v0 0 0q0 21-14.5 35.5t-35.5 14.5v0 0zM804 494h-404v-80h404v80zM250 504q-21 0-35.5-14.5t-14.5-35.5q0-20 14.5-35t35.5-15 35.5 15 14.5 35v0q0 21-14.5 35.5t-35.5 14.5v0 0 0 0zM804 734h-404v-80h404v80zM250 744q-21 0-35.5-14.5t-14.5-35.5q0-20 14.5-35t35.5-15 35.5 15 14.5 35v0q0 21-14.5 35.5t-35.5 14.5v0 0 0 0zM80 56v784q0 17 11.5 28.5t28.5 11.5h784q16 0 28-11.5t12-28.5v-452h80v452q0 50-35.5 85t-84.5 35h-784q-50 0-85-35t-35-85v-784q0-49 35-84.5t85-35.5h462v80h-462q-17 0-28.5 12t-11.5 28v0 0zM967-64l-79 80q-20-12-43.5-19t-48.5-7q-75 0-128 53t-53 127q0 75 53 128t128 53q74 0 127-53t53-128q0-27-8-52.5t-23-47.5l1 1 78-78zM796 70q41 0 70.5 29.5t29.5 70.5q0 42-29.5 71t-70.5 29q-42 0-71-29t-29-71v0q0-41 29-70.5t71-29.5v0 0z" />
<glyph unicode="&#xe91b;" glyph-name="search" horiz-adv-x="989" d="M974 27l-244 254q45 53 71 121t26 144q0 86-33 161-32 76-88 132t-132 88q-75 33-161 33-85 0-161-33-75-32-131-88t-88-132q-33-75-33-161 0-85 33-160 32-76 88-132t131-88q76-33 161-33v0 0 0h2q66 0 126 20t111 56l-2-1 246-255q7-8 17-12.5t22-4.5q22 0 38 15.5t16 38.5q0 11-4 20.5t-11 16.5v0 0zM413 852v0 0q64 0 119-24 56-24 97.5-65.5t65.5-96.5q24-56 24-119 0-64-24-119-24-56-65.5-97.5t-97.5-65.5q-55-24-119-24-63 0-119 24-55 24-96.5 65.5t-65.5 97.5q-24 55-24 119v0q0 63 24 118 24 56 65.5 97.5t97.5 65.5q55 24 118 24v0 0z" />
<glyph unicode="&#xe91c;" glyph-name="products" horiz-adv-x="913" d="M491-64v487l422 243v-454q0-16-8-29t-21-20v0l-393-227zM421-64v0l-393 227q-12 7-20 20t-8 29v455l421-243v-488zM457 484v0l-420 243 391 225q6 4 13 6t15 2 15.5-2 13.5-6v0l391-226-419-242z" />
<glyph unicode="&#xe91d;" glyph-name="tick-inside-circle" d="M302 545l-72-71 231-231 512 512-72 72-440-440zM921 448q0-85-32-159-32-75-87.5-130.5t-130.5-87.5q-74-33-159-33t-160 33q-74 32-129.5 87.5t-88.5 130.5q-32 74-32 159t32 159q33 75 88.5 130.5t129.5 87.5q75 33 160 33v0h3q29 0 57.5-4.5t54.5-11.5h-2l82 82q-44 16-93 25.5t-101 10.5h-1q-106 0-199-40-94-40-163.5-109.5t-109.5-163.5q-40-93-40-199t40-199q40-94 109.5-163.5t163.5-109.5q93-40 199-40t199 40q94 40 163.5 109.5t109.5 163.5q40 93 40 199v0h-103z" />
<glyph unicode="&#xe91e;" glyph-name="twitter" horiz-adv-x="1260" d="M1260 839q-32-15-69-25.5t-77-15.5h-2q40 24 69 60.5t44 80.5v2q-35-21-75.5-37t-84.5-25l-4-1q-35 38-84 60t-104 22q-54 0-101-20-47-21-82-56t-56-82q-20-47-20-101 0-15 2-30.5t5-29.5v2q-81 4-156 24-76 21-143.5 56t-126.5 82q-59 48-106 106l-1 2q-17-28-26-61t-9-69q0-67 31-123.5t83-91.5h1q-33 1-62.5 9.5t-56.5 23.5l2-1v-3q0-47 15-89 16-42 43.5-75.5t65.5-56.5q37-23 81-33h2q-15-4-32.5-6.5t-35.5-2.5q-13 0-25.5 1.5t-24.5 3.5h1q13-39 37-72 23-32 54.5-56t69.5-37q38-14 81-15v0q-33-26-70-46-37-21-77.5-35t-84.5-22q-43-7-89-7v0 0 0h-1q-16 0-32 1t-31 2h2q42-27 88-49 47-21 97-36t103-23 108-8v0 0 0q179 0 316 67t230.5 173 141.5 236q48 131 48 260v16.5t-1 16.5q38 28 70 61t58 71l1 2z" />
<glyph unicode="&#xe91f;" glyph-name="user" horiz-adv-x="890" d="M690 714q0-52-19-96-19-45-52.5-78.5t-77.5-53.5q-45-19-96-19-50 0-95 19-45 20-78 53.5t-52 78.5q-20 44-20 96 0 51 20 95 19 45 52 78.5t78 53.5q45 19 95 19 51 0 96-19 44-20 77.5-53.5t52.5-78.5q19-44 19-95zM445 383q-92 0-173-36-81-35-141.5-95.5t-95.5-141.5-35-173v-1l890 1q0 92-35 173t-95 141.5-141 95.5q-82 36-174 36v0 0z" />
<glyph unicode="&#xe920;" glyph-name="whatsapp" horiz-adv-x="1019" d="M72 199q-32 54-50 118.5t-18 134.5q0 105 40 198 40 92 109 161t161 109q93 40 198 40t197-40q93-40 161.5-109t108.5-161q40-93 40-198t-40-197q-40-93-108.5-161.5t-161.5-108.5q-92-40-197-40h-1q-66 0-128 16.5t-117 46.5l3-1-269-71zM297 89q46-27 100.5-43t113.5-16v0 0h1q87 0 164 34 77 33 134 90t90 134 33 164q0 88-33 164-33 77-90 134.5t-134 90.5-164 33q-88 0-164-33-77-33-134.5-90.5t-90.5-134.5q-33-76-33-164 0-62 17-119.5t48-106.5l-1 2 10-16-42-155 159 41zM594 216q-22 7-40.5 14t-35.5 15l4-2q-47 20-86 52-39 31-67 61t-45 52q-16 23-18 26-5 7-28.5 46t-23.5 85v3q0 30 12 57t32 46v0q6 7 15 11.5t19 4.5v0h27q6 0 12.5-3t13.5-19q8-19 22.5-54.5t16.5-39.5q2-3 2.5-6t0.5-6-0.5-5.5-1.5-5.5v0q-3-6-6-11t-7-10v0q-4-5-9-11.5t-10-10.5q-4-5-7.5-10.5t2.5-15.5q15-25 32.5-47t37.5-41v0q22-19 47-35t53-27l2-1q10-4 16-3.5t12 6.5q5 7 19.5 24t20.5 26q6 10 13 10t15-3q9-4 43-20.5t44-21.5q10-4 16-7.5t8-7.5q1-4 1.5-8.5t0.5-8.5q0-12-2.5-23t-6.5-20v0q-8-22-37.5-39.5t-48.5-20.5q-7-1-14.5-1.5t-15.5-0.5v0h-1q-13 0-25.5 2t-24.5 5h1z" />
<glyph unicode="&#xe921;" glyph-name="check" horiz-adv-x="1396" d="M1390 807l-865-865q-3-3-6.5-4.5t-7.5-1.5-7.5 1.5-6.5 4.5l-491 491q-3 3-4.5 6.5t-1.5 7.5 1.5 7.5 4.5 6.5v0l119 119q3 3 6.5 4.5t7.5 1.5 7.5-1.5 6.5-4.5v0l358-358 732 732q3 3 6.5 4.5t7.5 1.5 7.5-1.5 6.5-4.5v0l119-119q3-3 4.5-6.5t1.5-7.5-1.5-7.5-4.5-6.5v0 0z" />
<glyph unicode="&#xe922;" glyph-name="user-lock" horiz-adv-x="1097" d="M1017 248h-11v66q-1 47-34.5 79t-79.5 32q-47 0-80-32t-35-78v-67h-12q-33 0-56-23t-23-55v0-156q0-32 23-55t56-23h253q33 0 56 23t23 55v0 156q0 32-23 55t-56 23v0h-1zM846 314q1 19 14 32t32 13q18 0 31.5-13t13.5-31v-67h-91v66zM617 170q1 45 26 81t65 52h1v11q0 21 4.5 40.5t13.5 36.5v-1q-26 17-56.5 26.5t-64.5 9.5v0 0h-391q-44 0-83-17-39-16-68-45t-46-67q-17-39-18-83v0-156q0-13 10-23t24-10v0 0h583v145zM640 737q-1-46-19-87-19-40-50-70.5t-72-47.5-87-17q-47 0-88 17t-72 47.5-49 70.5q-19 41-20 87v0q1 47 20 87 18 41 49 71t72 48q41 17 88 17 46 0 87-17 41-18 72-48t50-70q18-41 19-87v-1z" />
<glyph unicode="&#xe923;" glyph-name="bookmark-fill" horiz-adv-x="796" d="M683 960h-569q-47 0-80-33t-33-80v-1l-1-910 398 171 399-171v910q0 47-33.5 80.5t-80.5 33.5v0 0 0 0z" />
<glyph unicode="&#xe924;" glyph-name="bookmark" horiz-adv-x="796" d="M683 960h-569q-47 0-80-33t-33-80v-1l-1-910 398 171 399-171v910q0 47-33.5 80.5t-80.5 33.5v0 0 0 0zM683 107l-285 123-284-123v739h569v-739z" />
<glyph unicode="&#xe925;" glyph-name="box" d="M985.126 723.463l-452.197 229.132c-9.209 4.703-20.087 7.459-31.608 7.459-11.919 0-23.15-2.949-33.002-8.158l0.385 0.186-193.96-102.842c-1.749-0.757-3.235-1.565-4.639-2.487l0.114 0.070-232.423-123.411c-22.636-11.983-37.795-35.386-37.795-62.329 0-0.052 0-0.104 0-0.155v0.008-425.818c0-0.029 0-0.062 0-0.096 0-26.943 15.159-50.346 37.413-62.145l0.381-0.184 430.703-228.618c9.467-5.024 20.698-7.973 32.617-7.973 11.44 0 22.246 2.717 31.807 7.541l-0.405-0.185 452.506 229.235c23.283 11.72 38.978 35.43 38.978 62.804 0 0.084 0 0.167 0 0.251v-0.013 424.687c0 0.086 0.001 0.187 0.001 0.289 0 27.334-15.648 51.014-38.475 62.57l-0.4 0.184zM496.522 899.117c1.367 0.718 2.987 1.139 4.705 1.139s3.338-0.421 4.762-1.166l-0.057 0.027 423.299-214.477-164.548-82.017-414.043 218.9zM470.812 10.921l-404.993 214.58c-3.382 1.731-5.657 5.192-5.657 9.184 0 0.043 0 0.086 0.001 0.129v-0.007 399.079l410.906-214.272zM501.099 471.602l-408.541 212.935 194.063 102.842 411.78-217.923zM963.889 235.836c0.001-0.044 0.001-0.097 0.001-0.149 0-4.053-2.344-7.558-5.751-9.234l-0.060-0.027-427.207-216.894v409.672l196.789 97.957v-102.842c0-16.571 13.433-30.004 30.004-30.004s30.004 13.433 30.004 30.004v0 132.769l176.426 87.827v-399.131z" />
<glyph unicode="&#xe926;" glyph-name="building" horiz-adv-x="896" d="M255.983 664.002v80.064c0.058 13.242 10.806 23.955 24.056 23.955 0 0 0 0 0 0h79.997c13.233-0.038 23.951-10.756 23.989-23.985v-80.035c-0.038-13.233-10.756-23.951-23.985-23.989h-80.001c0 0 0 0 0 0-13.262 0-24.018 10.732-24.056 23.985v0.004zM536.023 640.013h79.997c13.233 0.038 23.951 10.756 23.989 23.985v80.068c-0.038 13.233-10.756 23.951-23.985 23.989h-80.035c-13.233-0.038-23.951-10.756-23.989-23.985v-80.068c0.038-13.233 10.756-23.951 23.985-23.989h0.004zM280.040 448.034h79.997c13.233 0.038 23.951 10.756 23.989 23.985v80.001c-0.038 13.233-10.756 23.951-23.985 23.989h-80.001c-13.233-0.038-23.951-10.756-23.989-23.985v-80.001c0.038-13.233 10.756-23.951 23.985-23.989h0.004zM536.023 448.034h79.997c13.233 0.038 23.951 10.756 23.989 23.985v80.001c-0.038 13.233-10.756 23.951-23.985 23.989h-80.035c-13.233-0.038-23.951-10.756-23.989-23.985v-80.001c0.038-13.233 10.756-23.951 23.985-23.989h0.004zM384.194 280.044v79.997c-0.038 13.233-10.756 23.951-23.985 23.989h-80.17c-13.233-0.038-23.951-10.756-23.989-23.985v-80.001c0.038-13.233 10.756-23.951 23.985-23.989h80.001c13.219 0.057 23.917 10.767 23.955 23.985v0.004zM536.023 256.055h79.997c13.233 0.038 23.951 10.756 23.989 23.985v80.001c-0.038 13.233-10.756 23.951-23.985 23.989h-80.035c-13.233-0.038-23.951-10.756-23.989-23.985v-80.001c0.019-13.248 10.744-23.984 23.985-24.023h0.004zM895.992 8.068v-72.001h-895.992v71.967c0 0.020 0 0.044 0 0.068 0 13.262 10.732 24.018 23.985 24.056h39.007v879.83c0 0.040 0 0.088 0 0.135 0 26.442 21.435 47.877 47.877 47.877 0.048 0 0.095 0 0.143 0h673.944c0.040 0 0.088 0 0.135 0 26.442 0 47.877-21.435 47.877-47.877 0-0.048 0-0.095 0-0.143v0.007-879.83h39.003c13.257-0.038 23.989-10.794 23.989-24.056 0-0.024 0-0.048 0-0.071v0.004zM158.981 34.048h224.976v133.98c0.038 13.233 10.756 23.951 23.985 23.989h80.001c13.233-0.038 23.951-10.756 23.989-23.985v-133.984h224.976v828.107l-576.949 1.991z" />
<glyph unicode="&#xe927;" glyph-name="company" horiz-adv-x="1229" d="M0-23.073c0 22.634 18.348 40.982 40.982 40.982h1146.668c0.451 0.018 0.98 0.028 1.511 0.028 22.634 0 40.982-18.348 40.982-40.982s-18.348-40.982-40.982-40.982c-0.532 0-1.061 0.010-1.587 0.030l0.076-0.002h-1146.668c0 0 0 0 0 0-22.614 0-40.95 18.317-40.982 40.923v0.003zM105.885 936.024c14.821 14.814 35.292 23.976 57.904 23.976 0.010 0 0.020 0 0.030 0h491.507c45.237 0 81.909-36.672 81.909-81.909v0-901.109c-0.836-21.974-18.852-39.471-40.954-39.471s-40.118 17.497-40.952 39.395l-0.002 0.076v901.109h-491.509v-901.109c-0.836-21.974-18.852-39.471-40.954-39.471s-40.118 17.497-40.952 39.395l-0.002 0.076v901.109c0 0.009 0 0.019 0 0.029 0 22.611 9.162 43.083 23.976 57.904v0zM655.382 591.327c0 22.634 18.348 40.982 40.982 40.982v0h368.618c45.237 0 81.909-36.672 81.909-81.909v0-573.473c-0.836-21.974-18.852-39.471-40.954-39.471s-40.118 17.497-40.952 39.395l-0.002 0.076v573.473h-368.618c0 0 0 0 0 0-22.614 0-40.95 18.317-40.982 40.923v0.003zM245.782 714.218c0 22.634 18.348 40.982 40.982 40.982v0h163.818c0.451 0.018 0.98 0.028 1.511 0.028 22.634 0 40.982-18.348 40.982-40.982s-18.348-40.982-40.982-40.982c-0.532 0-1.061 0.010-1.587 0.030l0.076-0.002h-163.818c0 0 0 0 0 0-22.614 0-40.95 18.317-40.982 40.923v0.003zM327.691 386.527c0 22.634 18.348 40.982 40.982 40.982v0h163.818c0.451 0.018 0.98 0.028 1.511 0.028 22.634 0 40.982-18.348 40.982-40.982s-18.348-40.982-40.982-40.982c-0.532 0-1.061 0.010-1.587 0.030l0.076-0.002h-163.818c0 0 0 0 0 0-22.614 0-40.95 18.317-40.982 40.923v0.003zM245.782 181.727c0 22.634 18.348 40.982 40.982 40.982h163.818c0.451 0.018 0.98 0.028 1.511 0.028 22.634 0 40.982-18.348 40.982-40.982s-18.348-40.982-40.982-40.982c-0.532 0-1.061 0.010-1.587 0.030l0.076-0.002h-163.818c0 0 0 0 0 0-22.614 0-40.95 18.317-40.982 40.923v0.003zM819.2 181.727c0 22.634 18.348 40.982 40.982 40.982v0h81.686c21.974-0.836 39.471-18.852 39.471-40.954s-17.497-40.118-39.395-40.952l-0.076-0.002h-81.686c0 0 0 0 0 0-22.614 0-40.95 18.317-40.982 40.923v0.003zM819.2 386.527c0 22.634 18.348 40.982 40.982 40.982v0h81.686c21.974-0.836 39.471-18.852 39.471-40.954s-17.497-40.118-39.395-40.952l-0.076-0.002h-81.686c0 0 0 0 0 0-22.614 0-40.95 18.317-40.982 40.923v0.003z" />
<glyph unicode="&#xe928;" glyph-name="cores" horiz-adv-x="1029" d="M94.973 448.526c0 0.093 0 0.204 0 0.314 0 229.898 186.369 416.267 416.267 416.267 145.163 0 272.971-74.305 347.465-186.955l0.964-1.551-107.488-106.728h273.223v271.117l-96.435-96.435c-93.891 131.091-245.718 215.502-417.261 215.502-282.546 0-511.607-228.999-511.708-511.522v-5.332h94.973zM933.647 448.526c0-0.209 0.001-0.457 0.001-0.704 0-229.898-186.369-416.267-416.267-416.267-145.351 0-273.303 74.498-347.755 187.393l-0.967 1.561 107.663 106.728h-273.749v-271.117l96.435 96.435c93.823-131.805 246.062-216.743 418.139-216.743 282.608 0 511.708 229.099 511.708 511.708 0 0.375 0 0.749-0.001 1.124v-0.058 5.263h-95.207z" />
<glyph unicode="&#xe929;" glyph-name="dashboard" d="M394.651 618.667h-319.963c-41.237 0.031-74.658 33.452-74.689 74.686v191.959c0.031 41.237 33.452 74.658 74.686 74.689h320.020c0.016 0 0.035 0 0.054 0 41.26 0 74.712-33.433 74.743-74.686v-191.959c-0.031-41.256-33.482-74.689-74.743-74.689-0.038 0-0.076 0-0.114 0h0.006zM74.689 895.997c-5.961 0-10.793-4.832-10.793-10.793v0-191.848c0-5.961 4.832-10.793 10.793-10.793v0h320.017c5.961 0 10.793 4.832 10.793 10.793v191.956c0 5.961-4.832 10.793-10.793 10.793v0zM394.651-63.946h-319.963c-41.218 0.031-74.627 33.421-74.689 74.629v447.922c0.031 41.237 33.452 74.658 74.686 74.689h320.020c0.016 0 0.035 0 0.054 0 41.241 0 74.681-33.402 74.742-74.629v-447.922c-0.031-41.256-33.482-74.689-74.743-74.689-0.038 0-0.076 0-0.114 0h0.006zM74.635 469.397c-5.961 0-10.793-4.832-10.793-10.793v0-447.916c0-5.961 4.832-10.793 10.793-10.793v0h320.017c5.961 0 10.793 4.832 10.793 10.793v0 447.916c0 5.961-4.832 10.793-10.793 10.793v0zM949.311-64h-320.017c-41.237 0.031-74.658 33.452-74.689 74.686v192.013c0.031 41.237 33.452 74.658 74.686 74.689h320.020c41.237-0.031 74.658-33.452 74.689-74.686v-192.013c-0.031-41.237-33.452-74.658-74.686-74.689h-0.003zM629.295 213.33c-5.961 0-10.793-4.832-10.793-10.793v0-192.010c0-5.961 4.832-10.793 10.793-10.793h320.017c5.961 0 10.793 4.832 10.793 10.793v0 192.010c0 5.961-4.832 10.793-10.793 10.793v0zM949.311 362.653h-320.017c-41.237 0.031-74.658 33.452-74.689 74.686v447.919c0 41.279 33.463 74.743 74.743 74.743v0h320.017c41.237-0.031 74.658-33.452 74.689-74.686v-447.919c0-41.279-33.463-74.743-74.743-74.743v0zM629.295 895.997c-5.961 0-10.793-4.832-10.793-10.793v0-447.916c0-5.961 4.832-10.793 10.793-10.793h320.017c5.961 0 10.793 4.832 10.793 10.793v0 447.916c0 5.961-4.832 10.793-10.793 10.793v0z" />
<glyph unicode="&#xe92a;" glyph-name="delivery" horiz-adv-x="1477" d="M1115.614 308.454c-102.839 0-186.207-83.368-186.207-186.207s83.368-186.207 186.207-186.207c102.839 0 186.207 83.368 186.207 186.207v0c-0.113 102.794-83.413 186.094-186.196 186.207h-0.011zM1115.614 29.163c-51.409 0-93.084 41.675-93.084 93.084s41.675 93.084 93.084 93.084c51.409 0 93.084-41.675 93.084-93.084v0c0-51.433-41.66-93.135-93.077-93.203h-0.006zM479.443 308.454c-102.839 0-186.207-83.368-186.207-186.207s83.368-186.207 186.207-186.207c102.839 0 186.207 83.368 186.207 186.207v0c-0.113 102.794-83.413 186.094-186.196 186.207h-0.011zM479.443 29.163c-51.409 0-93.084 41.675-93.084 93.084s41.675 93.084 93.084 93.084c51.409 0 93.084-41.675 93.084-93.084v0c0-51.433-41.66-93.135-93.077-93.203h-0.006zM1240.997 841.291c-7.835 15.32-23.509 25.625-41.589 25.625-0.002 0-0.005 0-0.007 0h-245.164v-93.084h216.282l126.734-252.117 83.191 41.834zM623.736 167.14h352.192v-93.084h-352.192v93.084zM339.797 167.14h-161.337c-25.124-0.757-45.202-21.305-45.202-46.542s20.078-45.785 45.132-46.54l0.070-0.002h161.377c0.405-0.013 0.882-0.020 1.36-0.020 25.715 0 46.562 20.846 46.562 46.562s-20.846 46.562-46.562 46.562c-0.478 0-0.955-0.007-1.43-0.022l0.070 0.002zM1467.369 451.715l-91.375 117.914c-8.584 10.995-21.84 17.997-36.731 17.997-0.006 0-0.012 0-0.018 0h-338.445v325.773c0 25.715-20.846 46.562-46.562 46.562v0h-775.777c-0.405 0.013-0.882 0.020-1.36 0.020-25.715 0-46.562-20.846-46.562-46.562s20.846-46.562 46.562-46.562c0.478 0 0.955 0.007 1.43 0.022l-0.070-0.002h729.215v-325.773c0-25.715 20.846-46.562 46.562-46.562v0h362.005l67.777-87.403v-240.079h-128.76c-0.405 0.013-0.882 0.020-1.36 0.020-25.715 0-46.562-20.846-46.562-46.562s20.846-46.562 46.562-46.562c0.478 0 0.955 0.007 1.43 0.022l-0.070-0.002h175.163c25.715 0 46.562 20.846 46.562 46.562v0 302.611c0 0.064 0 0.14 0 0.215 0 10.715-3.616 20.585-9.695 28.457l0.080-0.108zM336.698 402.849h-214.136c-25.124-0.757-45.202-21.305-45.202-46.542s20.078-45.785 45.132-46.54l0.070-0.002h214.136c25.124 0.757 45.202 21.305 45.202 46.542s-20.078 45.785-45.132 46.54l-0.070 0.002zM443.766 586.076h-397.284c-25.124-0.757-45.202-21.305-45.202-46.542s20.078-45.785 45.132-46.54l0.070-0.002h397.284c25.124 0.757 45.202 21.305 45.202 46.542s-20.078 45.785-45.132 46.54l-0.070 0.002zM519.807 769.145h-397.284c-25.124-0.757-45.202-21.305-45.202-46.542s20.078-45.785 45.132-46.54l0.070-0.002h397.284c25.124 0.757 45.202 21.305 45.202 46.542s-20.078 45.785-45.132 46.54l-0.070 0.002z" />
<glyph unicode="&#xe92b;" glyph-name="invoice" horiz-adv-x="928" d="M226.012 412.814h-166.535c-32.848 0-59.477 26.629-59.477 59.477v0 356.861c0 72.266 58.583 130.849 130.849 130.849s130.849-58.583 130.849-130.849v0-380.651c-0.264-19.602-16.084-35.422-35.661-35.686h-0.025zM71.372 484.186h118.954v344.965c0 32.848-26.629 59.477-59.477 59.477s-59.477-26.629-59.477-59.477v0zM725.617 626.93h-333.070c-19.709 0-35.686 15.977-35.686 35.686s15.977 35.686 35.686 35.686v0h333.070c19.709 0 35.686-15.977 35.686-35.686s-15.977-35.686-35.686-35.686v0zM582.873 293.86h-190.326c-19.709 0-35.686 15.977-35.686 35.686s15.977 35.686 35.686 35.686v0h190.326c19.709 0 35.686-15.977 35.686-35.686s-15.977-35.686-35.686-35.686v0zM725.617 460.395h-333.070c-19.709 0-35.686 15.977-35.686 35.686s15.977 35.686 35.686 35.686v0h333.070c19.709 0 35.686-15.977 35.686-35.686s-15.977-35.686-35.686-35.686v0zM559.082-63.952c-1.002-0.020-2.182-0.032-3.366-0.032-36.723 0-70.827 11.213-99.075 30.403l0.616-0.395c-17.32 12.232-38.869 19.552-62.128 19.552-1.076 0-2.148-0.016-3.216-0.047l0.157 0.004c-0.947 0.030-2.061 0.047-3.179 0.047-23.063 0-44.415-7.325-61.856-19.776l0.324 0.22-14.75-8.565c-11.727-6.939-25.845-11.039-40.92-11.039s-29.193 4.1-41.299 11.246l0.379-0.207c-24.664 14.757-40.92 41.327-40.92 71.695 0 0.054 0 0.107 0 0.161v-0.008 728.472c0 19.709 15.977 35.686 35.686 35.686s35.686-15.977 35.686-35.686v0-727.044c0.092-4.46 2.53-8.33 6.127-10.436l0.058-0.032c1.638-0.962 3.607-1.53 5.71-1.53s4.072 0.568 5.764 1.559l-0.054-0.029c4.631 2.187 8.53 4.407 12.244 6.88l-0.349-0.219c27.581 18.79 61.633 30.003 98.305 30.003 1.070 0 2.138-0.010 3.203-0.029l-0.16 0.002c0.738 0.011 1.609 0.017 2.481 0.017 36.791 0 71.009-11.018 99.535-29.934l-0.667 0.416c17.151-12.532 38.657-20.051 61.918-20.051 1.317 0 2.628 0.024 3.933 0.072l-0.189-0.005c0.817-0.022 1.78-0.035 2.745-0.035 23.204 0 44.699 7.317 62.304 19.77l-0.338-0.227c27.484 18.792 61.443 30.008 98.022 30.008 1.17 0 2.337-0.011 3.501-0.034l-0.174 0.003c0.89 0.016 1.94 0.025 2.992 0.025 36.465 0 70.355-11.027 98.517-29.928l-0.637 0.402 12.371-7.137c1.694-1.049 3.748-1.671 5.948-1.671s4.254 0.622 5.997 1.699l-0.049-0.028c3.4 2.095 5.648 5.774 5.71 9.983v656.157c-0.269 111.408-90.375 201.682-201.694 202.221h-523.447c-19.709 0-35.686 15.977-35.686 35.686s15.977 35.686 35.686 35.686v0h523.396c150.993-0.27 273.323-122.601 273.593-273.567v-655.698c-0.018-45.974-37.291-83.237-83.268-83.237-14.467 0-28.072 3.689-39.926 10.179l0.434-0.218-15.226 8.565c-16.759 12.235-37.768 19.576-60.492 19.576-1.316 0-2.626-0.025-3.931-0.073l0.188 0.006c-1.024 0.036-2.228 0.056-3.436 0.056-23.205 0-44.654-7.516-62.046-20.247l0.296 0.207c-27.67-18.502-61.703-29.526-98.311-29.526-1.068 0-2.134 0.009-3.198 0.028l0.16-0.002z" />
<glyph unicode="&#xe92c;" glyph-name="log-out" horiz-adv-x="838" d="M0.047 75.636v744.727c-0.043 1.277-0.068 2.777-0.068 4.283 0 73.029 57.795 132.559 130.142 135.345l0.253 0.008h335.127c25.706 0 46.545-20.839 46.545-46.545s-20.839-46.545-46.545-46.545v0h-335.127c-21.236-3.002-37.392-21.056-37.392-42.884 0-1.289 0.056-2.565 0.167-3.825l-0.012 0.163v-744.727c-0.099-1.097-0.155-2.373-0.155-3.662 0-21.828 16.156-39.882 37.162-42.857l0.23-0.027h335.127c25.706 0 46.545-20.839 46.545-46.545s-20.839-46.545-46.545-46.545v0h-335.127c-72.6 2.794-130.395 62.324-130.395 135.353 0 1.506 0.025 3.007 0.073 4.501l-0.006-0.218zM679.145 494.545h-399.825c-25.706 0-46.545-20.839-46.545-46.545s20.839-46.545 46.545-46.545v0h399.825l-66.095-65.629c-8.458-8.458-13.689-20.142-13.689-33.047 0-25.812 20.924-46.736 46.736-46.736 12.906 0 24.59 5.231 33.047 13.689l145.222 145.222c8.137 8.601 13.14 20.24 13.14 33.047s-5.003 24.447-13.161 33.070l0.021-0.022-145.222 145.222c-8.458 8.458-20.142 13.689-33.047 13.689-25.812 0-46.736-20.924-46.736-46.736 0-12.906 5.231-24.59 13.689-33.047v0z" />
<glyph unicode="&#xe92d;" glyph-name="messagecenter" horiz-adv-x="1168" d="M0 235.763c0.258-18.846 15.596-34.025 34.479-34.025 7.354 0 14.171 2.302 19.768 6.226l-0.111-0.074 188.214 134.25c14.872 10.778 33.483 17.241 53.605 17.241 0.066 0 0.132 0 0.197 0h413.774c73.002 0 132.181 59.179 132.181 132.181v0 434.243c0 19.044-15.438 34.482-34.482 34.482h-675.445c-73.002 0-132.181-59.179-132.181-132.181v0zM68.447 827.704c0 0.051 0 0.112 0 0.172 0 35.199 28.535 63.734 63.734 63.734 0 0 0 0 0 0h641.48v-400.106c-0.033-35.154-28.522-63.644-63.674-63.677h-413.787c-0.076 0-0.166 0-0.256 0-34.994 0-67.368-11.223-93.717-30.265l0.47 0.323-134.25-95.687zM1168.364 562.365c0 73.002-59.179 132.181-132.181 132.181v0h-91.435c-17.144-2.172-30.267-16.665-30.267-34.223s13.123-32.051 30.096-34.206l0.171-0.018h91.435c35.154-0.033 63.644-28.522 63.677-63.674v-525.681l-134.077 95.63c-25.873 18.719-58.24 29.942-93.229 29.942-0.097 0-0.193 0-0.29 0h-413.769c-35.154 0.033-63.644 28.522-63.677 63.674v30.692c0.165 1.266 0.259 2.729 0.259 4.215 0 19.044-15.438 34.482-34.482 34.482s-34.482-15.438-34.482-34.482c0-1.486 0.094-2.95 0.276-4.386l-0.018 0.171v-30.689c0-73.002 59.179-132.181 132.181-132.181v0h413.784c0.056 0 0.121 0 0.187 0 20.121 0 38.733-6.463 53.873-17.426l-0.268 0.185 188.214-134.25c5.487-3.85 12.303-6.152 19.658-6.152 18.883 0 34.221 15.179 34.479 34.001v591.965zM246.144 705.121h395.508c17.144 2.172 30.267 16.665 30.267 34.223s-13.123 32.051-30.096 34.206l-0.171 0.018h-395.508c-17.144-2.172-30.267-16.665-30.267-34.223s13.123-32.051 30.096-34.206l0.171-0.018zM246.144 545.412h395.508c1.266-0.165 2.729-0.259 4.215-0.259 19.044 0 34.482 15.438 34.482 34.482s-15.438 34.482-34.482 34.482c-1.486 0-2.95-0.094-4.386-0.276l0.171 0.018h-395.508c-1.266 0.165-2.729 0.259-4.215 0.259-19.044 0-34.482-15.438-34.482-34.482s15.438-34.482 34.482-34.482c1.486 0 2.95 0.094 4.386 0.276l-0.171-0.018z" />
<glyph unicode="&#xe92e;" glyph-name="quote" horiz-adv-x="887" d="M136.211-64h649.211c56.331 0 101.996 45.665 101.996 101.996v0 0.697c0 0.069 0 0.151 0 0.232 0 56.34-45.659 102.016-101.993 102.042h-34.636v682.729c0 75.237-60.978 136.231-136.209 136.258h-580.457c-18.845 0-34.122-15.277-34.122-34.122v0-853.62c0.026-75.217 60.994-136.184 136.208-136.211h0.003zM785.422 4.245h-580.64v34.448c0 18.64 15.111 33.751 33.751 33.751v0h546.89c18.64 0 33.751-15.111 33.751-33.751v0-0.79c0-18.64-15.111-33.751-33.751-33.751v0zM682.636 140.967v682.729c0 37.537-30.429 67.966-67.966 67.966v0h-546.378v-819.451c0-37.52 30.403-67.94 67.917-67.966h0.281v34.448c0 0.069 0 0.151 0 0.232 0 56.356 45.686 102.042 102.042 102.042 0 0 0 0 0 0v0zM170.659 482.099h204.781c18.858 0 34.146 15.288 34.146 34.146s-15.288 34.146-34.146 34.146h-204.781c-18.858 0-34.146-15.288-34.146-34.146s15.288-34.146 34.146-34.146v0zM170.659 618.636h409.609c18.858 0 34.146 15.288 34.146 34.146s-15.288 34.146-34.146 34.146h-409.609c-18.858 0-34.146-15.288-34.146-34.146s15.288-34.146 34.146-34.146v0zM170.659 755.172h409.609c18.845 0 34.122 15.277 34.122 34.122s-15.277 34.122-34.122 34.122v0h-409.609c-18.845 0-34.122-15.277-34.122-34.122s15.277-34.122 34.122-34.122v0z" />
<glyph unicode="&#xe92f;" glyph-name="repair" d="M215.742 151.742c6.447-6.456 10.434-15.369 10.434-25.214 0-19.707-15.976-35.683-35.683-35.683s-35.683 15.976-35.683 35.683c0 9.845 3.987 18.758 10.434 25.214v0c6.459 6.468 15.387 10.469 25.249 10.469s18.79-4.001 25.249-10.468v0zM407.905 558.534c-7.851 26.152-12.37 56.205-12.37 87.313 0 173.593 140.725 314.317 314.317 314.317 39.358 0 77.027-7.234 111.748-20.445l-2.158 0.721c13.744-5.186 23.341-18.229 23.341-33.514 0-9.865-3.998-18.797-10.463-25.263v0l-132.176-131.934 22.707-90.877 90.877-22.707 131.934 131.934c6.48 6.549 15.468 10.605 25.404 10.605 15.338 0 28.419-9.665 33.486-23.237l0.081-0.247c12.49-32.563 19.724-70.232 19.724-109.59 0-173.593-140.725-314.317-314.317-314.317-31.108 0-61.16 4.519-89.536 12.936l2.224-0.566-363.702-363.266c-27.47-27.47-65.42-44.461-107.338-44.461-83.837 0-151.799 67.963-151.799 151.799 0 41.918 16.991 79.868 44.461 107.338v0zM473.945 523.529l-378.953-379.001c-14.117-14.461-22.826-34.258-22.826-56.088 0-44.361 35.962-80.322 80.322-80.322 21.83 0 41.626 8.709 56.104 22.842l378.985 378.985c6.478 6.452 15.414 10.44 25.281 10.44 4.447 0 8.705-0.81 12.634-2.291l-0.247 0.082c25.141-9.639 54.223-15.221 84.608-15.221 134.072 0 242.758 108.687 242.758 242.758 0 9.422-0.537 18.719-1.582 27.862l0.104-1.118-101.141-101.141c-6.478-6.453-15.415-10.442-25.283-10.442-3.057 0-6.024 0.383-8.856 1.103l0.248-0.053-131.256 32.826c-12.825 3.272-22.727 13.174-25.946 25.752l-0.054 0.247-32.826 131.256c-0.667 2.585-1.050 5.552-1.050 8.609 0 9.868 3.989 18.804 10.443 25.284l101.14 101.092c-8.025 0.941-17.322 1.478-26.744 1.478-134.072 0-242.758-108.687-242.758-242.758 0-30.386 5.583-59.468 15.778-86.276l-0.557 1.668c1.399-3.682 2.21-7.94 2.21-12.387 0-9.867-3.989-18.802-10.441-25.282l0.001 0.001z" />
<glyph unicode="&#xe930;" glyph-name="upload" horiz-adv-x="811" d="M551.811 952.079c-4.457 4.795-10.766 7.816-17.781 7.92h-399.483c-74.078-0.361-134.048-60.247-134.547-134.257v-755.422c0.499-74.058 60.47-133.943 134.512-134.304h542.21c74.078 0.361 134.048 60.247 134.547 134.257v599.851c-0.224 6.73-2.913 12.791-7.189 17.346l0.013-0.014zM558.987 872.682l168.951-177.339h-109.832c-0.057 0-0.124 0-0.191 0-32.545 0-58.928 26.383-58.928 58.928 0 0 0 0 0 0v0zM676.722-14.518h-542.175c-46.801 0.33-84.663 38.138-85.082 84.886v755.327c0.467 46.751 38.311 84.51 85.050 84.839h375.041v-156.316c0-0.041 0-0.090 0-0.139 0-59.759 48.444-108.203 108.203-108.203 0.134 0 0.268 0 0.402 0.001h143.677v-575.556c-0.381-46.799-38.296-84.616-85.095-84.839h-0.021zM609.197 156.132h-407.108c-13.659 0-24.733-11.073-24.733-24.733s11.073-24.733 24.733-24.733h407.298c13.607 0.069 24.612 11.116 24.612 24.733 0 13.66-11.073 24.733-24.733 24.733-0.043 0-0.085 0-0.128 0h0.007zM278.991 422.28l101.911 109.572v-270.099c0-13.659 11.073-24.733 24.733-24.733s24.733 11.073 24.733 24.733v0 270.117l101.911-109.572c4.508-4.752 10.868-7.709 17.919-7.709 13.631 0 24.681 11.050 24.681 24.681 0 6.435-2.462 12.294-6.496 16.688l0.016-0.018-144.946 155.571c-4.501 4.868-10.922 7.907-18.051 7.907s-13.55-3.038-18.036-7.89l-0.015-0.016-144.946-155.571c-4.11-4.392-6.634-10.312-6.634-16.822 0-7.121 3.020-13.537 7.849-18.036l0.015-0.014c4.476-4.117 10.474-6.641 17.061-6.641 7.196 0 13.689 3.012 18.286 7.844l0.010 0.011z" />
<glyph unicode="&#xe931;" glyph-name="warehouse" d="M184.349 574.613h655.203v-638.581h184.349v785.563l-526.512 238.404-497.39-238.404v-785.563h184.349zM387.415 44.797h101.271v-87.365h-101.271v87.365zM532.467 44.797h101.271v-87.365h-101.271v87.365zM242.364 44.797h101.271v-87.365h-101.271v87.365zM387.415 187.329h101.271v-87.365h-101.271v87.365zM242.364 187.329h101.271v-87.365h-101.271v87.365zM532.467 187.329h101.271v-87.365h-101.271v87.365zM387.415 326.393h101.271v-87.365h-101.271v87.365zM242.364 326.393h101.271v-87.365h-101.271v87.365zM677.551 44.797h101.271v-87.365h-101.271v87.365z" />
<glyph unicode="&#xe932;" glyph-name="warrenty" horiz-adv-x="818" d="M0 737.628v-411.262c0.136-5.476 1.502-10.602 3.831-15.154l-0.092 0.199c85.791-165.843 221.639-295.712 387.316-371.781l5.086-2.093h3.739c3.739 0 5.608-1.869 9.347-1.869v0c0.45-0.043 0.972-0.067 1.501-0.067 2.869 0 5.571 0.717 7.937 1.98l-0.091-0.044h3.739c171.221 77.452 307.288 207.537 390.285 369.332l2.117 4.542c2.012 4.377 3.35 9.463 3.731 14.814l0.008 0.141v411.262c0.001 0.117 0.002 0.256 0.002 0.395 0 17.064-11.867 31.357-27.799 35.075l-0.243 0.048c-141.989 35.477-360.622 179.377-362.533 181.246s-3.739 1.869-7.477 3.739c-1.869 0-1.869 0-3.739 1.869h-16.617c-1.869 0-3.739-1.869-5.608-1.869-1.869-1.869-3.739-1.869-7.477-3.739s-220.794-145.769-362.658-181.329c-14.318-5.458-24.304-19.075-24.304-35.024 0-0.145 0.001-0.289 0.002-0.433v0.022zM74.775 709.587c128.765 48.334 239.717 105.586 342.693 173.901l-6.206-3.871c96.769-64.444 207.722-121.695 324.955-166.188l11.532-3.842v-373.874c-76.561-140.758-192.073-252.019-332.061-321.296l-4.426-1.981c-144.414 71.257-259.926 182.518-334.506 319.308l-1.981 3.969zM347.578 319.055c6.596-6.916 15.881-11.216 26.171-11.216s19.576 4.3 26.158 11.202l184.999 184.999c6.541 6.671 10.578 15.817 10.578 25.907 0 20.442-16.572 37.014-37.014 37.014-10.090 0-19.236-4.037-25.913-10.584l-158.849-158.849-84.080 84.080c-6.671 6.541-15.817 10.578-25.907 10.578-20.442 0-37.014-16.572-37.014-37.014 0-10.090 4.037-19.236 10.584-25.913l-0.006 0.006z" />
</font>
</defs>
</svg>
